osu file format v14

[General]
AudioFilename: 1.mp3
AudioLeadIn: 1500
PreviewTime: 63141
Countdown: 0
SampleSet: Soft
StackLeniency: 0.7
Mode: 0
LetterboxInBreaks: 1
WidescreenStoryboard: 1

[Editor]
Bookmarks: 70504
DistanceSpacing: 1.1
BeatDivisor: 4
GridSize: 4
TimelineZoom: 1.7

[Metadata]
Title:Kuai Dian Gao Su Ni
TitleUnicode:快点告诉你
Artist:Li Meng Di
ArtistUnicode:李梦迪
Creator:moonlightleaf
Version:Hard
Source:动画城
Tags:Animation City CCTV Cartoon liangv587 Dong Hua Cheng
BeatmapID:748976
BeatmapSetID:336686

[Difficulty]
HPDrainRate:5
CircleSize:4
OverallDifficulty:6
ApproachRate:7
SliderMultiplier:1.5
SliderTickRate:1

[Events]
//Background and Video events
0,0,"bg.jpg",0,0
//Break Periods
2,63341,69604
//Storyboard Layer 0 (Background)
//Storyboard Layer 1 (Fail)
//Storyboard Layer 2 (Pass)
//Storyboard Layer 3 (Foreground)
//Storyboard Sound Samples

[TimingPoints]
550,460.22858019483,4,2,1,60,1,0
3311,-100,4,1,1,40,0,0
3426,-100,4,1,2,50,0,0
3541,-100,4,1,1,60,0,0
3656,-100,4,1,2,70,0,0
3771,-100,4,1,1,60,0,0
3886,-100,4,1,1,40,0,0
4001,-100,4,1,1,20,0,0
4231,-100,4,2,1,60,0,0
44731,-100,4,2,1,70,0,1
63141,-100,4,2,1,60,0,0
99959,-100,4,2,1,70,0,1
118368,-100,4,2,1,60,0,0
118828,-100,4,2,1,50,0,0
119058,-100,4,2,1,45,0,0
119288,-100,4,2,1,40,0,0
119519,-100,4,2,1,35,0,0
119749,-100,4,2,1,30,0,0
120209,-100,4,2,1,70,0,1
122050,-100,4,2,1,70,0,0

[Colours]
Combo1 : 255,188,155
Combo2 : 128,255,255
Combo3 : 128,64,64
Combo4 : 255,0,0

[HitObjects]
71,239,550,6,0,B|87:217|113:209|137:215,1,75,6|0,1:2|0:0,0:0:0:0:
196,272,1010,2,0,B|180:294|154:302|130:296,1,75,0|0,0:0|0:0,0:0:0:0:
137,215,1470,2,0,L|145:140,1,75,2|0,0:0|0:0,0:0:0:0:
208,88,1930,1,0,0:0:0:0:
284,124,2160,1,0,0:0:0:0:
356,88,2390,6,0,L|356:13,1,75,2|0,1:2|0:0,0:0:0:0:
436,35,2851,1,0,0:0:0:0:
436,118,3081,1,2,0:0:0:0:
436,200,3311,2,2,B|405:221|405:221|385:267|385:267|341:292|341:292|321:339|321:339|293:361,1,225,2|2,2:0|2:1,0:0:0:0:
215,327,4231,5,0,1:0:0:0:
134,311,4461,1,0,0:0:0:0:
76,252,4692,2,0,B|67:214|73:177,1,75,2|0,0:0|0:0,0:0:0:0:
144,136,5152,2,0,B|151:173|146:210,1,75,2|0,0:0|0:0,0:0:0:0:
215,252,5612,2,0,B|239:240|265:237|290:241,1,75,2|0,0:0|0:0,0:0:0:0:
372,252,6072,5,0,1:0:0:0:
436,304,6302,1,2,0:0:0:0:
448,224,6532,2,0,L|456:132,1,75,2|2,0:0|0:0,0:0:0:0:
439,68,6993,2,0,B|414:76|388:73|367:61,1,75,2|0,0:0|0:0,0:0:0:0:
288,36,7453,2,0,L|244:68,1,37.5,0|0,3:0|3:0,0:0:0:0:
228,88,7683,2,0,L|215:135,1,37.5,0|0,3:0|3:0,0:0:0:0:
219,165,7913,6,0,L|219:240,1,75,4|2,1:2|0:0,0:0:0:0:
292,280,8373,2,0,L|292:205,1,75,8|2,0:0|0:0,0:0:0:0:
294,123,8834,2,0,L|228:88,1,75,0|0,0:0|0:0,0:0:0:0:
152,60,9294,1,8,0:0:0:0:
80,104,9524,1,2,0:0:0:0:
107,179,9754,6,0,B|125:217|113:261|81:287|45:292,1,150,0|8,1:0|0:0,0:0:0:0:
24,212,10444,2,0,L|158:277,1,150,2|0,0:2|0:0,0:0:0:0:
236,304,11135,1,8,0:0:0:0:
315,288,11365,1,0,3:0:0:0:
315,288,11595,6,0,B|337:273|346:246|339:221,1,75,0|2,1:0|0:0,0:0:0:0:
282,163,12055,2,0,B|260:178|251:205|258:228,1,75,8|2,0:0|0:0,0:0:0:0:
340,222,12515,2,0,L|415:214,1,75,0|0,0:0|0:0,0:0:0:0:
460,144,12976,1,8,0:0:0:0:
460,144,13436,5,0,1:0:0:0:
396,92,13666,2,0,B|374:77|346:78|325:92,1,75,2|8,0:0|0:0,0:0:0:0:
282,163,14126,2,0,L|192:164,2,75,0|2|0,1:0|0:0|0:0,0:0:0:0:
340,222,14817,1,8,0:0:0:0:
340,222,15047,1,8,0:0:0:0:
292,288,15277,6,0,L|229:329,1,75,4|2,0:1|0:0,0:0:0:0:
160,284,15737,2,0,L|222:242,1,75,8|0,0:0|0:0,0:0:0:0:
292,288,16197,2,0,L|365:304,1,75,2|0,0:0|0:0,0:0:0:0:
413,238,16658,2,0,L|339:221,1,75,8|2,0:0|0:0,0:0:0:0:
264,184,17118,6,0,B|242:169|233:142|240:117,1,75,0|0,0:0|0:0,0:0:0:0:
297,59,17578,2,0,B|319:74|328:101|321:124,1,75,8|0,0:0|0:0,0:0:0:0:
264,184,18038,1,2,0:0:0:0:
284,260,18268,1,0,0:0:0:0:
204,240,18498,1,8,0:0:0:0:
228,320,18729,1,2,0:0:0:0:
148,308,18959,6,0,B|124:320|96:313|78:295,1,75,0|2,0:0|0:0,0:0:0:0:
58,215,19419,2,0,B|82:203|109:210|126:228,1,75,8|0,0:0|0:0,0:0:0:0:
78,295,19879,2,0,L|37:358,2,75,2|0|8,0:0|0:0|0:0,0:0:0:0:
127,228,20569,1,2,0:0:0:0:
180,164,20800,5,0,0:0:0:0:
264,160,21030,1,2,0:0:0:0:
284,80,21260,2,0,B|260:67|232:72|214:89,1,75,8|0,0:0|0:0,0:0:0:0:
180,164,21720,1,2,0:0:0:0:
228,232,21950,1,0,0:0:0:0:
307,216,22180,2,0,B|306:189|288:168|264:160,1,75,8|2,0:0|0:0,0:0:0:0:
180,164,22640,5,0,0:0:0:0:
127,228,22871,1,2,0:0:0:0:
44,236,23101,2,0,L|33:161,1,75,8|0,0:0|0:0,0:0:0:0:
88,96,23561,1,2,0:0:0:0:
141,32,23791,1,0,0:0:0:0:
224,24,24021,2,0,L|234:98,1,75,8|2,0:0|0:0,0:0:0:0:
248,180,24481,6,0,B|250:206|269:227|292:232,1,75,0|2,0:0|0:0,0:0:0:0:
372,211,24942,2,0,B|371:184|351:163|327:157,1,75,8|0,0:0|0:0,0:0:0:0:
248,180,25402,1,2,0:0:0:0:
196,244,25632,1,0,0:0:0:0:
280,256,25862,1,8,0:0:0:0:
228,320,26092,1,2,0:0:0:0:
308,332,26322,6,0,L|380:313,1,75,0|2,0:0|0:0,0:0:0:0:
460,292,26783,2,0,L|462:217,1,75,8|0,0:0|0:0,0:0:0:0:
468,136,27243,2,0,B|415:130|379:82|386:31,1,150,2|8,0:0|0:0,0:0:0:0:
304,24,27933,1,2,0:0:0:0:
224,48,28163,6,0,L|168:48,3,37.5,0|0|2|0,0:0|0:0|0:0|0:0,0:0:0:0:
152,68,28623,2,0,L|121:89,3,37.5,8|0|0|0,0:0|0:0|0:0|0:0,0:0:0:0:
88,116,29084,1,0,0:0:0:0:
40,184,29314,1,2,0:0:0:0:
124,188,29544,1,8,0:0:0:0:
76,256,29774,1,2,0:0:0:0:
116,328,30004,6,0,B|163:304|217:307|260:330,1,150,4|8,0:1|0:0,0:0:0:0:
336,368,30694,1,0,0:0:0:0:
412,332,30925,2,0,L|442:263,1,75,2|0,0:0|0:0,0:0:0:0:
390,186,31385,2,0,L|359:254,1,75,8|2,0:0|0:0,0:0:0:0:
472,183,31845,6,0,B|472:141|441:107|400:98|366:112,1,150,0|8,0:0|0:0,0:0:0:0:
284,128,32535,1,0,0:0:0:0:
220,184,32766,2,0,L|210:258,1,75,2|0,0:0|0:0,0:0:0:0:
144,208,33226,2,0,L|153:133,1,75,8|2,0:0|0:0,0:0:0:0:
224,60,33686,6,0,B|263:23|326:31|356:75,1,150,0|8,0:0|0:0,0:0:0:0:
376,156,34376,1,0,0:0:0:0:
396,236,34606,2,0,L|413:308,1,75,2|0,0:0|0:0,0:0:0:0:
340,348,35067,2,0,L|322:275,1,75,8|2,0:0|0:0,0:0:0:0:
304,196,35527,5,0,0:0:0:0:
285,111,35757,1,2,0:0:0:0:
224,169,35987,1,8,0:0:0:0:
202,88,36217,1,0,0:0:0:0:
144,144,36447,2,0,B|118:146|97:165|92:188,1,75,2|0,0:0|0:0,0:0:0:0:
112,266,36908,2,0,B|139:264|160:244|166:220,1,75,8|2,0:0|0:0,0:0:0:0:
202,88,37368,6,0,B|212:47|247:20|288:17|320:33,1,150,0|8,0:0|0:0,0:0:0:0:
400,60,38058,1,0,0:0:0:0:
468,104,38288,2,0,B|485:124|486:152|474:173,1,75,2|0,0:0|0:0,0:0:0:0:
405,211,38748,2,0,B|386:191|385:162|400:141,1,75,8|2,0:0|0:0,0:0:0:0:
400,60,39209,6,0,L|266:128,1,150,0|8,0:0|0:0,0:0:0:0:
192,168,39899,1,0,0:0:0:0:
152,240,40129,2,0,L|152:336,2,75,2|0|8,0:0|0:0|0:0,0:0:0:0:
76,269,40820,1,2,0:0:0:0:
7,244,41050,6,0,B|24:204|68:196|68:196|113:143,1,150,0|8,0:0|0:0,0:0:0:0:
168,80,41740,1,0,0:0:0:0:
244,108,41970,2,0,L|316:88,1,75,2|0,0:0|0:0,0:0:0:0:
360,160,42430,2,0,L|287:179,1,75,8|2,0:0|0:0,0:0:0:0:
208,200,42891,5,0,0:0:0:0:
144,252,43121,1,0,0:0:0:0:
88,312,43351,1,8,0:0:0:0:
28,256,43581,1,0,0:0:0:0:
84,196,43811,1,0,0:0:0:0:
144,252,44041,1,0,3:0:0:0:
172,332,44271,1,0,3:0:0:0:
172,332,44386,1,0,3:0:0:0:
172,332,44501,1,0,3:0:0:0:
232,276,44731,6,0,L|249:127,2,150,4|8|0,0:0|0:1|0:0,0:0:0:0:
232,276,46112,1,8,0:1:0:0:
300,324,46342,1,0,0:0:0:0:
368,276,46572,6,0,L|456:276,1,75,0|0,0:0|0:0,0:0:0:0:
480,204,47033,1,8,0:1:0:0:
480,120,47263,1,0,0:0:0:0:
404,92,47493,2,0,B|388:114|392:142|409:161,1,75,0|0,0:0|0:0,0:0:0:0:
480,120,47953,2,0,B|493:97|490:69|474:50,1,75,8|8,0:1|0:1,0:0:0:0:
404,8,48413,6,0,B|362:5|325:32|312:72|321:107,1,150,0|8,0:0|0:1,0:0:0:0:
328,188,49104,1,0,0:0:0:0:
336,270,49334,2,0,L|342:344,1,75,0|0,0:0|0:0,0:0:0:0:
424,352,49794,1,8,0:1:0:0:
424,352,50024,1,0,0:0:0:0:
472,241,50254,6,0,B|424:218|368:232|336:269,1,150,0|8,0:0|0:1,0:0:0:0:
280,332,50945,1,0,0:0:0:0:
224,272,51175,1,0,0:0:0:0:
168,332,51405,1,0,0:0:0:0:
108,276,51635,2,0,L|79:251,1,37.5,8|0,3:1|3:0,0:0:0:0:
53,220,51865,2,0,L|44:183,1,37.5,8|0,3:1|3:0,0:0:0:0:
44,142,52095,6,0,L|44:67,1,75,4|0,0:0|0:0,0:0:0:0:
120,36,52555,2,0,L|120:111,1,75,8|0,0:1|0:0,0:0:0:0:
115,191,53016,2,0,B|157:196|195:171|209:131|199:95,1,150,0|8,0:0|0:1,0:0:0:0:
196,12,53706,1,0,0:0:0:0:
276,40,53936,6,0,L|297:111,1,75,0|0,0:0|0:0,0:0:0:0:
316,192,54396,2,0,L|312:266,2,75,8|0|0,0:1|0:0|0:0,0:0:0:0:
380,140,55087,1,0,3:0:0:0:
460,156,55317,2,0,L|456:230,1,75,8|8,0:1|0:1,0:0:0:0:
452,336,55777,6,0,B|396:352|396:352|360:340|360:340|307:351,1,150,0|8,0:0|0:1,0:0:0:0:
228,328,56467,1,0,0:0:0:0:
148,304,56697,2,0,B|112:282|68:286|36:312|23:346,2,150,0|8|0,0:0|0:1|0:0,0:0:0:0:
228,328,57848,5,0,0:0:0:0:
224,244,58078,2,0,L|220:169,1,75,8|0,0:1|0:0,0:0:0:0:
141,146,58538,2,0,L|144:220,1,75,0|0,0:0|0:0,0:0:0:0:
148,304,58999,1,8,3:1:0:0:
228,328,59229,1,8,3:1:0:0:
228,328,59344,1,0,3:0:0:0:
228,328,59459,6,0,L|396:332,1,150,4|8,0:0|0:1,0:0:0:0:
456,308,60149,1,0,0:0:0:0:
479,228,60379,2,0,B|496:177|493:125|475:79,2,150,4|8|4,0:0|0:1|0:1,0:0:0:0:
456,308,61530,5,0,0:0:0:0:
400,248,61760,2,0,B|362:239|325:246,1,75,8|0,0:1|0:0,0:0:0:0:
248,280,62220,2,0,B|210:288|173:281,1,75,0|0,0:0|3:0,0:0:0:0:
108,232,62680,2,0,L|76:192,1,37.5,8|0,3:1|3:0,0:0:0:0:
84,160,62910,2,0,L|116:120,1,37.5,8|0,3:1|3:0,0:0:0:0:
100,88,63141,5,6,1:2:0:0:
132,76,70504,6,0,B|170:93|190:132|185:172|164:200,1,150,4|8,0:1|0:0,0:0:0:0:
108,264,71195,1,0,0:0:0:0:
52,204,71425,2,0,B|56:177|76:157|100:150,1,75,2|0,0:0|0:0,0:0:0:0:
180,136,71885,2,0,L|254:153,1,75,8|2,0:0|0:0,0:0:0:0:
336,160,72345,6,0,B|343:134|332:108|311:94,1,75,0|2,0:0|0:0,0:0:0:0:
253,152,72805,2,0,B|246:178|256:204|277:218,1,75,8|0,0:0|0:0,0:0:0:0:
360,240,73266,1,2,0:0:0:0:
442,254,73496,1,0,0:0:0:0:
416,176,73726,1,8,0:0:0:0:
336,160,73956,1,2,0:0:0:0:
277,218,74186,6,0,B|253:230|225:223|207:205,1,75,0|2,0:0|0:0,0:0:0:0:
152,144,74646,2,0,B|135:123|106:119|83:130,1,75,8|0,0:0|0:0,0:0:0:0:
20,184,75107,2,0,B|8:240|8:240|24:280|24:280|16:329,1,150,2|8,0:0|0:0,0:0:0:0:
96,356,75797,1,2,0:0:0:0:
160,304,76027,5,0,0:0:0:0:
244,300,76257,1,2,0:0:0:0:
272,224,76487,2,0,B|248:211|220:216|202:233,1,75,8|0,0:0|0:0,0:0:0:0:
160,304,76947,1,2,0:0:0:0:
207,372,77178,1,0,0:0:0:0:
286,355,77408,2,0,B|285:329|268:307|244:300,1,75,8|2,0:0|0:0,0:0:0:0:
160,304,77868,5,0,0:0:0:0:
78,296,78098,1,2,0:0:0:0:
64,215,78328,2,0,L|25:150,1,75,8|0,0:0|0:0,0:0:0:0:
106,129,78788,2,0,L|181:129,1,75,2|0,0:0|0:0,0:0:0:0:
262,150,79249,2,0,L|272:224,1,75,8|2,0:0|0:0,0:0:0:0:
304,300,79709,6,0,B|330:294|348:272|350:248,1,75,0|2,0:0|0:0,0:0:0:0:
384,172,80169,2,0,B|410:178|427:200|428:224,1,75,8|0,0:0|0:0,0:0:0:0:
428,308,80629,1,2,0:0:0:0:
362,359,80859,1,0,0:0:0:0:
304,300,81090,1,8,0:0:0:0:
238,351,81320,1,2,0:0:0:0:
184,288,81550,6,0,L|112:307,1,75,0|2,0:0|0:0,0:0:0:0:
104,224,82010,2,0,L|31:242,1,75,8|0,0:0|0:0,0:0:0:0:
60,139,82470,2,0,B|107:114|165:133|188:179,1,150,2|8,0:0|0:0,0:0:0:0:
240,244,83161,1,2,0:0:0:0:
316,208,83391,6,0,L|356:192,3,37.5,0|0|2|0,0:0|0:0|0:0|0:0,0:0:0:0:
392,189,83851,2,0,L|427:201,3,37.5,8|0|0|0,0:0|0:0|0:0|0:0,0:0:0:0:
467,213,84311,1,0,0:0:0:0:
452,132,84541,1,2,0:0:0:0:
372,108,84771,1,8,0:0:0:0:
392,189,85001,1,2,0:0:0:0:
452,132,85232,6,0,B|466:81|431:29|379:22,1,150,4|8,0:1|0:0,0:0:0:0:
298,42,85922,1,0,0:0:0:0:
244,104,86152,2,0,L|214:173,1,75,2|0,0:0|0:0,0:0:0:0:
117,192,86612,2,0,L|148:124,1,75,8|2,0:0|0:0,0:0:0:0:
44,172,87072,6,0,B|34:212|54:253|91:272|127:268,1,150,0|8,0:0|0:0,0:0:0:0:
212,268,87763,1,0,0:0:0:0:
288,236,87993,2,0,L|297:161,1,75,2|0,0:0|0:0,0:0:0:0:
376,140,88453,2,0,L|367:215,1,75,8|2,0:0|0:0,0:0:0:0:
464,148,88913,6,0,B|469:95|425:49|372:52,1,150,0|8,0:0|0:0,0:0:0:0:
295,79,89604,1,0,0:0:0:0:
288,161,89834,2,0,L|288:236,1,75,2|0,0:0|0:0,0:0:0:0:
212,272,90294,2,0,L|212:197,1,75,8|2,0:0|0:0,0:0:0:0:
212,116,90754,5,0,0:0:0:0:
193,31,90984,1,2,0:0:0:0:
132,89,91215,1,8,0:0:0:0:
110,8,91445,1,0,0:0:0:0:
56,68,91675,2,0,B|30:70|9:89|4:112,1,75,2|0,0:0|0:0,0:0:0:0:
24,190,92135,2,0,B|51:188|72:168|78:144,1,75,8|2,0:0|0:0,0:0:0:0:
212,116,92595,6,0,B|252:104|294:120|317:154|319:190,1,150,0|8,0:0|0:0,0:0:0:0:
364,260,93286,1,0,0:0:0:0:
448,252,93516,2,0,B|448:225|432:203|409:192,1,75,2|0,0:0|0:0,0:0:0:0:
364,260,93976,2,0,L|364:335,1,75,8|2,0:0|0:0,0:0:0:0:
319,191,94436,6,0,B|284:216|280:260|280:260|244:252|211:259,1,150,0|8,0:0|0:0,0:0:0:0:
152,315,95126,1,0,0:0:0:0:
92,260,95357,2,0,L|92:185,2,75,2|0|8,0:0|0:0|0:0,0:0:0:0:
15,289,96047,1,2,0:0:0:0:
80,340,96277,6,0,B|152:316|152:316|181:248,1,150,0|8,0:0|0:0,0:0:0:0:
216,172,96967,1,0,0:0:0:0:
252,96,97198,2,0,L|324:76,1,75,2|0,0:0|0:0,0:0:0:0:
372,144,97658,2,0,L|299:163,1,75,8|2,0:0|0:0,0:0:0:0:
216,172,98118,5,0,0:0:0:0:
216,172,98348,1,0,0:0:0:0:
181,248,98578,1,8,0:0:0:0:
181,248,98808,1,0,0:0:0:0:
108,208,99038,1,0,3:0:0:0:
144,132,99269,1,0,3:0:0:0:
216,88,99499,1,8,3:2:0:0:
216,88,99614,1,0,3:0:0:0:
216,88,99729,1,0,3:0:0:0:
287,127,99959,6,0,B|333:155|387:154|430:130,2,150,4|8|0,0:0|0:1|0:0,0:0:0:0:
287,127,101340,1,8,0:1:0:0:
216,172,101570,1,0,0:0:0:0:
236,252,101800,6,0,L|236:327,2,75,0|0|8,0:0|0:0|0:1,0:0:0:0:
308,208,102490,1,0,0:0:0:0:
376,158,102720,2,0,B|361:136|339:124|315:121,1,75,0|0,0:0|3:0,0:0:0:0:
308,208,103180,2,0,B|322:230|346:243|370:244,1,75,8|8,0:1|0:1,0:0:0:0:
315,121,103641,6,0,B|271:119|234:146|218:186|224:223,1,150,0|8,0:0|0:1,0:0:0:0:
244,296,104331,1,0,0:0:0:0:
308,347,104561,2,0,L|340:279,2,75,0|0|8,0:0|0:0|0:1,0:0:0:0:
392,340,105252,1,0,0:0:0:0:
412,240,105482,6,0,B|392:203|350:187|309:197|284:222,1,150,0|8,0:0|0:1,0:0:0:0:
244,296,106172,1,0,0:0:0:0:
180,348,106402,1,0,0:0:0:0:
104,316,106632,1,0,0:0:0:0:
32,276,106862,2,0,L|32:224,1,37.5,8|0,3:1|3:0,0:0:0:0:
32,196,107092,2,0,L|32:152,1,37.5,8|0,3:1|3:0,0:0:0:0:
32,116,107323,6,0,L|32:41,1,75,4|0,0:0|0:0,0:0:0:0:
104,81,107783,2,0,L|104:156,2,75,8|0|0,0:1|0:0|0:0,0:0:0:0:
104,81,108703,1,8,0:1:0:0:
180,48,108933,1,0,0:0:0:0:
240,107,109163,6,0,L|240:182,1,75,0|0,0:0|0:0,0:0:0:0:
236,265,109624,1,8,0:1:0:0:
212,344,109854,1,0,0:0:0:0:
156,284,110084,2,0,B|146:232|186:183|239:183,1,150,0|8,0:0|0:1,0:0:0:0:
381,270,111004,6,0,B|323:277|323:277|288:260|288:260|234:264,1,150,0|8,0:0|0:1,2:3:0:0:
212,344,111695,1,0,0:0:0:0:
156,284,111925,2,0,B|136:247|96:228|55:235|27:258,1,150,0|8,0:0|0:1,0:0:0:0:
80,320,112615,1,0,0:0:0:0:
156,284,112845,6,0,B|182:276|201:258|213:237,1,75,0|0,0:0|0:0,0:0:0:0:
194,157,113306,2,0,B|168:164|148:182|137:203,1,75,8|0,0:1|0:0,0:0:0:0:
156,284,113766,2,0,L|184:353,1,75,0|0,0:0|0:0,0:0:0:0:
268,364,114226,1,8,3:1:0:0:
348,344,114456,1,8,3:1:0:0:
348,344,114571,1,0,3:0:0:0:
348,344,114686,6,0,B|370:295|414:265|462:257,1,150,4|8,0:0|0:1,0:0:0:0:
480,176,115377,1,0,0:0:0:0:
464,96,115607,2,0,B|411:88|369:54|349:9,2,150,4|8|4,0:0|0:1|0:1,0:0:0:0:
480,176,116757,5,0,0:0:0:0:
462,257,116987,2,0,B|446:292|420:318,1,75,8|0,0:1|0:0,0:0:0:0:
340,340,117448,2,0,B|303:328|265:335,1,75,0|0,0:0|0:0,0:0:0:0:
184,324,117908,1,8,3:1:0:0:
208,244,118138,1,8,3:1:0:0:
208,244,118253,1,0,3:0:0:0:
208,244,118368,1,4,0:0:0:0:
208,244,118828,6,0,B|174:225|137:219,1,75,0|0,0:0|0:0,0:0:0:0:
60,188,119288,2,0,B|77:137|114:100|158:80,2,150,0|0|4,0:0|0:0|0:1,0:0:0:0:
173,311,120669,6,0,L|208:244,1,75,8|0,0:1|0:0,0:0:0:0:
276,200,121129,1,0,0:0:0:0:
356,180,121360,1,0,3:0:0:0:
433,149,121590,2,0,L|461:189,1,37.5,8|0,3:1|3:0,0:0:0:0:
472,217,121820,2,0,L|472:269,1,37.5,0|0,3:0|3:0,0:0:0:0:
472,296,122050,5,0,0:0:0:0:
408,348,122280,1,8,0:0:0:0:
328,332,122510,2,0,B|318:295|327:257,1,75,0|8,0:0|0:0,0:0:0:0:
356,180,122970,1,0,0:0:0:0:
360,98,123200,1,8,0:0:0:0:
288,56,123431,2,0,L|253:42,3,37.5,0|0|8|0,0:0|0:0|0:0|0:0,0:0:0:0:
212,32,123891,5,4,0:0:0:0:
112,84,124121,1,4,0:0:0:0:
